<?xml version="1.0" encoding="UTF-8"?><svg xmlns="http://www.w3.org/2000/svg" width="100%" height="100%"><defs><font id="web" horiz-adv-x="576"><!--



NOTICE: This font software is the valuable property 
of Webtype LLC, The Font Bureau, Webtype and/or its 
suppliers and its use by you is covered under the terms 
of the Web Font license agreement between you and Webtype 
LLC. You may ONLY use this font software with the licensed 
web site. Except as specifically permitted by the license, 
you may not copy this font software. If you have any 
questions, please contact Webtype.com. 

For more information, please visit http://www.webtype.com/store/license/?id=23

Licensed to: x

Serial number: SH-1454
--><font-face font-family="" units-per-em="1000" panose-1="2 0 0 0 0 0 0 0 0 0" ascent="902" descent="-223" alphabetic="0"/><missing-glyph horiz-adv-x="500" d="M50 755H450V-245H50V755ZM400 -195V705H100V-195H400Z"/><glyph unicode=" " horiz-adv-x="258"/><glyph unicode="!" horiz-adv-x="233" d="M137 577Q137 526 136 476T133 376L127 199H104L99 376Q97 425 96 475T95 577V700H137V577ZM116 -3Q102 -3 93 5T84 29Q84 44 93 53T116 62Q130 62 139 53T149 29Q149 14 140 6T116 -3Z"/><glyph unicode="&quot;" horiz-adv-x="380" d="M79 700H125L115 495H88L79 700ZM256 700H302L292 495H265L256 700Z"/><glyph unicode="#" horiz-adv-x="636" d="M429 472H250L209 230H388L429 472ZM383 198H203L170 0H136L169 198H28V230H174L214 472H69V504H220L252 700H288L255 504H434L467 700H502L469 504H609V472H464L423 230H567V198H417L384 0H350L383 198Z"/><glyph unicode="$" horiz-adv-x="620" d="M128 527Q128 488 142 463T181 420T237 393T302 374V675Q263 674 231 663T176 631T141 584T128 527ZM511 177Q511 217 496 242T456 285T399 312T332 330V25Q420 30 465 73T511 177ZM302 -105V-9Q268 -8 236 -2T174 13T120 34T79 59L99 89Q114 77 136 66T185 47T242 32T302 25V337Q263 347 225 359T157 392T108 445T89 527Q89 565 104 598T148 656T215 695T302 709V776H332V708Q392 706 440 692T522 661L505 628Q475 645 430 658T332 674V367Q371 358 410 346T480 314T530 261T550 178Q550 140 536 108T495 50T427 10T332 -9V-105H302Z"/><glyph unicode="%" horiz-adv-x="620" d="M169 407Q142 407 118 416T74 445T44 493T32 560Q32 597 43 625T74 673T117 702T168 712Q194 712 218 703T261 674T291 626T302 560Q302 522 291 493T262 445T219 417T169 407ZM61 0L523 700H559L97 0H61ZM169 437Q209 437 238 466T268 560Q268 591 260 614T237 652T205 674T168 682Q148 682 130 675T98 652T76 614T66 560Q67 528 75 505T98 467T130 445T169 437ZM454 -12Q427 -12 403 -3T359 26T329 74T317 141Q317 178 328 206T358 254T401 283T453 293Q479 293 503 283T546 254T576 207T587 141Q587 103 576 74T547 26T504 -2T454 -12ZM454 18Q493 18 523 47T553 141Q553 202 523 232T453 263Q433 263 415 256T383 233T361 195T351 141Q352 109 360 86T383 48T415 26T454 18Z"/><glyph unicode="&amp;" horiz-adv-x="730" d="M284 22Q352 22 411 50T515 126Q438 184 365 247T224 385Q165 355 126 306T87 192Q87 159 99 129T136 74T198 36T284 22ZM688 -1Q652 25 616 51T543 105Q494 51 428 20T283 -12Q225 -12 182 5T109 50T65 115T50 191Q50 227 62 259T94 319T143 370T203 410Q173 450 161 485T148 554Q148 585 160 614T194 664T247 699T316 712Q371 712 411 693T477 644L451 621Q429 647 395 663T316 679Q286 679 262 669T221 641T195 602T186 554Q186 522 201 487T253 408Q316 336 387 275T538 154Q566 192 582 238T598 335H634Q634 279 616 228T566 133Q601 107 637 81T711 28L688 -1Z"/><glyph unicode="'" horiz-adv-x="203" d="M79 700H125L115 495H88L79 700Z"/><glyph unicode="(" horiz-adv-x="356" d="M261 -200Q222 -157 186 -107T123 3T80 130T64 277Q64 356 80 424T123 552T185 662T260 755H306Q267 716 230 667T165 557T119 427T102 277Q102 197 119 128T164 -1T230 -110T306 -200H261Z"/><glyph unicode=")" horiz-adv-x="356" d="M292 277Q292 198 276 130T233 3T170 -106T95 -200H50Q89 -160 125 -111T190 -2T236 127T254 277Q254 357 237 427T191 557T126 666T50 755H96Q135 713 170 663T233 553T276 425T292 277Z"/><glyph unicode="*" horiz-adv-x="417" d="M149 401L198 541L197 543L50 529V569L197 564V566L139 700L177 711L218 573L220 572L330 668L354 637L234 556V553L360 479L337 445L223 533L221 532L186 390L149 401Z"/><glyph unicode="+" horiz-adv-x="612" d="M288 235H53V271H288V506H325V271H559V235H325V0H288V235Z"/><glyph unicode="," horiz-adv-x="197" d="M36 -146Q52 -120 61 -91T75 -34T79 19T74 65H123Q128 13 112 -48T57 -159L36 -146Z"/><glyph unicode="-" horiz-adv-x="369" d="M49 276H321V239H49V276Z"/><glyph unicode="." horiz-adv-x="222" d="M111 -4Q97 -4 87 5T76 31Q76 47 86 56T111 65Q125 65 135 56T146 31Q146 15 136 6T111 -4Z"/><glyph unicode="/" horiz-adv-x="468" d="M438 755H478L31 -200H-10L438 755Z"/><glyph unicode="0" horiz-adv-x="620" d="M310 -12Q247 -12 198 14T115 88T64 202T46 350Q46 431 63 497T114 612T197 686T310 712Q373 712 422 686T505 612T556 498T574 350Q574 269 557 203T506 88T423 14T310 -12ZM310 22Q365 22 407 45T477 112T520 216T535 350Q535 423 520 483T477 587T406 654T310 678Q255 678 213 655T143 588T100 484T85 350Q85 276 100 216T143 113T214 46T310 22Z"/><glyph unicode="1" horiz-adv-x="475" d="M278 0V658L76 566L59 597L283 700H316V0H278Z"/><glyph unicode="2" horiz-adv-x="620" d="M91 23Q91 91 108 139T155 221T221 278T297 320T373 356T439 395T486 448T504 523Q504 555 492 583T456 632T398 665T318 678Q258 678 208 654T122 593L95 619Q135 660 195 686T318 712Q372 712 413 697T483 657T527 597T542 523Q542 473 524 439T477 380T411 337T335 301T259 262T193 211T146 138T128 34H547V0H91V23Z"/><glyph unicode="3" horiz-adv-x="620" d="M97 61Q128 46 174 34T274 22Q326 22 371 34T449 69T500 125T519 202Q519 241 502 269T455 315T389 341T314 350H227V383H312Q344 383 376 392T433 421T474 468T490 536Q490 566 477 591T438 636T377 667T296 678Q239 678 189 655T104 595L80 621Q120 661 178 686T297 712Q350 712 393 699T466 662T512 607T529 537Q529 472 490 428T383 369Q464 358 511 314T558 201Q558 150 536 110T476 43T386 2T274 -12Q215 -12 165 0T82 28L97 61Z"/><glyph unicode="4" horiz-adv-x="620" d="M56 199L423 700H470V194H589V161H470V0H432V161H66L56 199ZM432 194V656L96 194H432Z"/><glyph unicode="5" horiz-adv-x="620" d="M94 62Q125 46 169 34T268 22Q320 22 363 35T437 74T486 136T504 219Q504 259 489 292T444 349T375 386T285 399Q253 399 216 391T138 369L110 387L122 700H514V667H157L147 404Q182 416 220 424T291 432Q347 432 393 417T473 374T524 307T543 218Q543 164 523 122T465 49T378 4T267 -12Q208 -12 160 0T79 29L94 62Z"/><glyph unicode="6" horiz-adv-x="620" d="M70 326Q70 432 95 505T161 625T254 691T362 712Q409 712 447 704T517 682L502 650Q475 661 440 669T362 678Q312 678 267 658T186 595T130 485T109 325Q128 347 153 365T207 398T270 420T336 428Q384 428 425 413T496 370T543 301T560 212Q560 168 545 128T500 56T428 7T329 -12Q260 -12 211 15T130 88T85 195T70 326ZM110 284Q114 228 128 181T169 98T235 42T329 22Q375 22 411 38T471 80T509 140T522 212Q522 254 508 288T468 346T408 383T333 396Q300 396 267 387T205 363T151 328T110 284Z"/><glyph unicode="7" horiz-adv-x="620" d="M520 666H63V700H561V672L241 0H198L520 666Z"/><glyph unicode="8" horiz-adv-x="620" d="M49 177Q49 216 64 247T107 301T170 340T249 363Q177 377 130 419T83 530Q83 572 100 605T148 662T220 699T310 712Q358 712 400 699T472 663T520 606T538 530Q538 496 526 468T491 419T438 384T371 363Q413 355 449 340T513 302T556 247T572 177Q572 132 552 97T497 38T414 1T310 -12Q254 -12 206 0T123 37T69 97T49 177ZM309 379Q350 383 385 395T445 426T485 471T500 530Q500 563 486 590T446 637T385 668T310 679Q270 679 236 668T176 638T136 591T121 530Q121 497 135 471T175 426T234 395T309 379ZM87 177Q87 141 104 112T151 63T221 32T310 21Q358 21 399 32T470 63T517 112T534 177Q534 216 515 245T465 295T393 328T310 345Q268 340 228 328T156 295T106 245T87 177Z"/><glyph unicode="9" horiz-adv-x="620" d="M512 416Q508 471 494 519T453 602T387 658T293 678Q247 678 211 662T151 620T113 560T100 488Q100 446 114 412T154 354T213 317T289 304Q322 304 355 313T417 337T471 372T512 416ZM552 374Q552 268 527 195T460 75T366 9T258 -12Q210 -12 172 -4T103 18L118 50Q145 39 179 31T258 22Q308 22 354 42T435 105T492 215T513 375Q494 353 469 335T415 302T352 280T286 272Q238 272 197 287T126 330T79 398T62 488Q62 532 77 572T122 644T194 693T293 712Q362 712 411 685T492 612T537 505T552 374Z"/><glyph unicode=":" horiz-adv-x="222" d="M76 472Q76 488 86 497T111 507Q125 507 135 498T146 472Q146 456 136 447T111 438Q96 438 86 447T76 472ZM111 -4Q97 -4 87 5T76 31Q76 47 86 56T111 65Q125 65 135 56T146 31Q146 15 136 6T111 -4Z"/><glyph unicode=";" horiz-adv-x="201" d="M76 475Q76 491 86 500T111 510Q125 510 135 501T146 475Q146 459 136 450T111 441Q96 441 86 450T76 475ZM36 -146Q52 -120 61 -91T75 -34T79 19T74 65H123Q128 13 112 -48T57 -159L36 -146Z"/><glyph unicode="&lt;" horiz-adv-x="642" d="M574 0L44 233V272L574 506V463L88 253L574 42V0Z"/><glyph unicode="=" horiz-adv-x="612" d="M53 391H559V355H53V391ZM53 152H559V116H53V152Z"/><glyph unicode="&gt;" horiz-adv-x="642" d="M68 42L554 253L68 463V506L598 272V233L68 0V42Z"/><glyph unicode="?" horiz-adv-x="500" d="M192 199Q192 201 192 206T191 213Q191 259 207 290T246 344T298 385T349 425T389 472T405 539Q405 568 393 593T359 637T305 667T234 678Q183 678 142 657T70 604L44 629Q79 665 126 688T235 712Q283 712 321 699T387 663T429 609T444 540Q444 495 428 464T388 410T335 367T282 327T241 278T223 210V199H192ZM208 -3Q194 -3 185 5T175 29Q175 44 184 53T208 62Q222 62 231 53T240 29Q240 14 231 6T208 -3Z"/><glyph unicode="@" horiz-adv-x="848" d="M444 -111Q367 -111 300 -84T182 -7T102 109T72 256Q72 337 100 408T179 531T295 614T439 645Q515 645 578 621T685 552T753 448T778 317Q778 258 762 213T719 137T658 89T589 73Q543 73 519 98T497 161Q474 128 439 106T362 84Q309 84 277 121T245 219Q245 262 259 307T299 389T365 451T454 475Q492 475 518 459T559 424L571 465H606L533 210Q519 163 532 131T591 99Q620 99 648 114T698 157T735 225T749 317Q749 383 727 438T664 533T566 595T439 617Q369 617 308 589T201 512T129 397T102 256Q102 183 129 121T202 14T311 -57T444 -83Q492 -83 535 -71T617 -37L632 -61Q590 -85 543 -98T444 -111ZM366 113Q408 113 447 143T504 234L550 396Q536 415 514 430T454 446Q426 446 403 436T360 407T325 364T300 313Q291 290 287 266T282 218Q282 172 303 143T366 113Z"/><glyph unicode="A" horiz-adv-x="670" d="M170 233H500L336 666H334L170 233ZM513 199H157L82 0H38L310 700H361L632 0H589L513 199Z"/><glyph unicode="B" horiz-adv-x="672" d="M93 700H358Q415 700 456 686T523 648T563 592T576 525Q576 458 540 417T450 360Q519 346 562 304T605 191Q605 99 547 50T384 0H93V700ZM357 373Q404 373 438 385T494 418T526 466T537 523Q537 552 527 578T494 623T438 654T357 666H132V373H357ZM384 34Q472 34 519 74T566 193Q566 228 552 255T514 301T456 330T383 340H132V34H384Z"/><glyph unicode="C" horiz-adv-x="713" d="M408 -12Q330 -12 267 14T158 90T88 207T63 359Q63 438 88 503T159 614T268 686T409 712Q469 712 525 695T626 645L604 615Q564 644 514 660T409 677Q340 677 284 654T188 589T125 489T103 359Q103 283 124 221T186 115T282 47T409 23Q470 23 524 43T617 98L642 71Q597 30 537 9T408 -12Z"/><glyph unicode="D" horiz-adv-x="705" d="M93 700H277Q367 700 435 677T549 609T618 501T642 359Q642 275 620 209T552 96T439 25T277 0H93V700ZM278 34Q360 34 421 56T522 121T582 223T602 359Q602 430 582 487T520 583T419 644T278 666H132V34H278Z"/><glyph unicode="E" horiz-adv-x="633" d="M93 700H553V665H132V374H512V340H132V35H559V0H93V700Z"/><glyph unicode="F" horiz-adv-x="613" d="M93 700H544V665H132V372H501V337H132V0H93V700Z"/><glyph unicode="G" horiz-adv-x="722" d="M409 -12Q329 -12 265 14T156 88T87 205T63 359Q63 438 88 503T158 614T268 686T409 712Q469 712 525 698T627 656L607 625Q566 651 515 664T409 677Q340 677 284 654T188 589T125 489T103 359Q103 282 124 220T184 114T281 47T409 23Q468 23 518 36T602 73V315H383V350H640V53Q594 22 534 5T409 -12Z"/><glyph unicode="H" horiz-adv-x="696" d="M93 700H132V374H564V700H603V0H564V339H132V0H93V700Z"/><glyph unicode="I" horiz-adv-x="225" d="M93 700H132V0H93V700Z"/><glyph unicode="J" horiz-adv-x="563" d="M261 -12Q216 -12 182 1T124 35T83 82T57 136L92 150Q99 127 112 105T146 64T195 35T260 23Q305 23 338 38T392 80T424 144T434 226V700H473V226Q473 173 461 130T422 55T355 6T261 -12Z"/><glyph unicode="K" horiz-adv-x="658" d="M132 0H93V700H132V257L526 700H576L346 442L605 0H557L320 414L132 203V0Z"/><glyph unicode="L" horiz-adv-x="603" d="M93 700H132V35H553V0H93V700Z"/><glyph unicode="M" horiz-adv-x="842" d="M93 700H146L421 292L697 700H750V0H712V653L421 227L131 654V0H93V700Z"/><glyph unicode="N" horiz-adv-x="714" d="M93 700H141L582 51V700H621V0H572L131 648V0H93V700Z"/><glyph unicode="O" horiz-adv-x="807" d="M403 -12Q332 -12 270 13T163 86T91 202T64 356Q64 437 91 502T164 614T271 686T403 712Q473 712 535 687T643 615T716 503T743 356Q743 270 717 202T644 87T536 14T403 -12ZM403 23Q466 23 520 46T615 111T679 216T703 356Q703 429 679 488T615 589T519 654T403 677Q342 677 288 654T193 589T128 488T104 356Q104 278 127 216T191 112T286 46T403 23Z"/><glyph unicode="P" horiz-adv-x="652" d="M93 700H361Q424 700 466 683T535 637T573 573T585 500Q585 465 573 429T535 364T465 317T359 298H132V0H93V700ZM359 332Q411 332 447 347T505 387T536 441T546 500Q546 530 537 560T505 613T448 651T361 666H132V332H359Z"/><glyph unicode="Q" horiz-adv-x="816" d="M632 74Q587 32 529 10T403 -12Q332 -12 270 13T163 86T91 202T64 356Q64 437 91 502T164 614T271 686T403 712Q473 712 535 687T643 615T716 503T743 356Q743 275 720 211T656 99L754 13L730 -13L632 74ZM403 23Q461 23 512 42T604 99L465 219L489 247L627 124Q662 166 682 224T703 356Q703 429 679 488T615 589T519 654T403 677Q342 677 288 654T193 589T128 488T104 356Q104 278 127 216T191 112T286 46T403 23Z"/><glyph unicode="R" horiz-adv-x="667" d="M370 333Q422 333 457 348T515 387T547 441T557 500Q557 530 548 560T516 613T459 651T372 666H132V333H370ZM132 0H93V700H372Q434 700 477 683T546 637T584 573T596 500Q596 469 587 438T558 379T507 332T430 304L592 0H547L392 299H132V0Z"/><glyph unicode="S" horiz-adv-x="602" d="M303 -12Q226 -12 162 9T60 56L80 88Q115 63 174 43T303 23Q354 23 391 34T453 66T490 113T502 173Q502 216 484 243T435 288T366 316T287 337T208 359T139 393T90 447T71 531Q71 569 86 602T131 659T202 698T298 712Q369 712 422 698T514 664L497 630Q462 648 412 662T299 677Q255 677 220 666T161 636T124 590T111 532Q111 488 129 461T178 416T247 388T326 368T405 346T474 313T523 258T542 173Q542 134 528 100T484 42T409 3T303 -12Z"/><glyph unicode="T" horiz-adv-x="640" d="M300 665H32V700H608V665H339V0H300V665Z"/><glyph unicode="U" horiz-adv-x="710" d="M355 -12Q300 -12 252 5T167 55T111 138T90 254V700H129V254Q129 197 147 154T195 82T267 38T355 23Q401 23 442 38T514 82T563 154T581 254V700H620V254Q620 188 600 138T543 55T459 5T355 -12Z"/><glyph unicode="V" horiz-adv-x="652" d="M38 700H81L325 40H327L571 700H615L350 0H302L38 700Z"/><glyph unicode="W" horiz-adv-x="990" d="M38 700H81L277 52H279L472 700H518L711 52H713L910 700H952L735 0H688L496 646H494L302 0H255L38 700Z"/><glyph unicode="X" horiz-adv-x="663" d="M307 358L58 700H106L332 386L557 700H606L356 358L617 0H568L331 329L95 0H46L307 358Z"/><glyph unicode="Y" horiz-adv-x="640" d="M300 288L37 700H85L319 324H321L555 700H603L339 288V0H300V288Z"/><glyph unicode="Z" horiz-adv-x="625" d="M64 41L511 665H64V700H553V659L107 36H564V0H64V41Z"/><glyph unicode="[" horiz-adv-x="352" d="M283 -200H89V755H283V723H127V-168H283V-200Z"/><glyph unicode="\" horiz-adv-x="468" d="M478 -200H437L-10 755H30L478 -200Z"/><glyph unicode="]" horiz-adv-x="352" d="M69 -168H225V723H69V755H263V-200H69V-168Z"/><glyph unicode="_" horiz-adv-x="542" d="M0 -12H542V-48H0V-12Z"/><glyph unicode="`" horiz-adv-x="653" d="M242 701L272 726L411 569H382L242 701Z"/><glyph unicode="a" horiz-adv-x="504" d="M201 20Q258 20 303 45T371 104V247Q326 245 277 239T187 217T119 176T92 110Q92 68 121 44T201 20ZM196 -12Q132 -12 93 20T54 109Q54 159 83 190T157 240T259 267T371 277V375Q371 421 343 452T249 484Q206 484 164 471T89 440L72 472Q106 490 153 503T249 517Q291 517 321 506T371 476T400 431T409 375V91Q409 61 424 46T466 30V0Q386 0 374 70Q347 36 301 12T196 -12Z"/><glyph unicode="b" horiz-adv-x="573" d="M302 -12Q250 -12 207 12T129 76L124 0H92V755H131V432Q163 466 205 491T302 517Q349 517 388 499T454 448T497 367T512 260Q512 198 498 148T457 63T391 8T302 -12ZM298 21Q340 21 373 38T428 86T461 162T473 260Q473 311 461 352T426 423T370 468T297 484Q246 484 206 458T131 394V113Q165 72 207 47T298 21Z"/><glyph unicode="c" horiz-adv-x="503" d="M289 -12Q238 -12 196 7T124 61T78 146T61 260Q61 319 78 366T125 447T197 499T289 517Q341 517 379 503T440 471L418 442Q398 456 367 470T290 484Q248 484 213 469T153 424T114 353T100 260Q100 149 151 86T290 22Q338 22 369 36T428 72L452 46Q420 19 382 4T289 -12Z"/><glyph unicode="d" horiz-adv-x="573" d="M275 21Q323 21 365 46T443 113V394Q408 432 368 458T276 484Q235 484 203 469T148 424T113 353T100 260Q100 206 111 162T145 87T200 38T275 21ZM271 -12Q221 -12 182 7T117 62T76 148T62 260Q62 319 77 366T119 447T185 499T272 517Q327 517 369 492T443 432V755H481V0H451L444 76Q409 36 366 12T271 -12Z"/><glyph unicode="e" horiz-adv-x="555" d="M471 43Q439 20 392 4T295 -12Q179 -12 121 60T62 259Q62 318 79 366T128 447T201 499T294 518Q345 518 382 502T443 456T478 386T490 300Q490 292 490 283T488 267H100V259Q100 149 148 85T296 21Q340 21 381 36T451 72L471 43ZM295 485Q257 485 224 472T166 435T124 376T102 298H452Q453 336 445 370T418 429T369 470T295 485Z"/><glyph unicode="f" horiz-adv-x="348" d="M123 472H26V504H123V567Q123 621 136 658T174 717T232 750T306 760Q319 760 336 758T361 753L352 721Q346 723 332 725T307 727Q274 727 247 719T201 693T172 643T161 567V504H310V472H161V0H123V472Z"/><glyph unicode="g" horiz-adv-x="557" d="M256 179Q291 179 321 190T374 223T408 272T421 334Q421 366 409 394T374 442T321 474T256 486Q221 486 192 475T140 443T106 394T93 334Q93 301 105 273T140 224T191 191T256 179ZM516 -79Q516 -143 454 -176T273 -210Q162 -210 103 -176T43 -78Q43 -37 70 -8T142 38Q94 61 94 110Q94 132 105 151T135 184Q98 209 77 247T55 334Q55 374 70 407T113 465T176 503T256 517Q331 517 384 478Q412 498 447 509T527 518V486Q483 487 455 481T405 461Q431 437 445 405T459 334Q459 293 444 259T401 200T336 162T256 148Q203 148 161 169Q146 159 137 145T127 115Q127 92 140 80T175 60T227 50T291 45Q335 43 375 36T447 15T497 -22T516 -79ZM272 -178Q371 -178 425 -154T479 -81Q479 -56 463 -39T420 -12T358 4T283 11Q220 14 180 24Q138 13 109 -13T80 -78Q80 -126 130 -152T272 -178Z"/><glyph unicode="h" horiz-adv-x="565" d="M92 755H131V426Q167 465 215 491T323 518Q366 518 395 506T443 472T470 420T478 352V0H440V352Q440 381 434 405T413 447T376 475T318 485Q261 485 215 459T131 388V0H92V755Z"/><glyph unicode="i" horiz-adv-x="223" d="M111 650Q98 650 90 658T81 680Q81 694 89 702T111 711Q125 711 133 703T142 680Q142 666 134 658T111 650ZM92 505H131V0H92V505Z"/><glyph unicode="j" horiz-adv-x="230" d="M119 650Q105 650 97 658T88 680Q88 694 97 702T119 711Q132 711 141 703T150 680Q150 666 142 658T119 650ZM1 -210Q-20 -210 -38 -205L-31 -172Q-19 -176 -1 -176Q43 -176 71 -145T100 -38V505H138V-37Q138 -84 128 -117T100 -170T56 -200T1 -210Z"/><glyph unicode="k" horiz-adv-x="503" d="M131 0H92V755H131V214L397 505H444L293 342L475 0H431L269 316L131 167V0Z"/><glyph unicode="l" horiz-adv-x="223" d="M92 755H131V0H92V755Z"/><glyph unicode="m" horiz-adv-x="874" d="M127 0H88V505H122L127 432Q162 467 207 492T310 518Q369 518 402 494T449 427Q485 465 533 491T639 518Q679 518 707 506T754 472T780 420T788 352V0H750V353Q750 411 724 448T634 485Q581 485 537 461T456 394Q459 374 459 351V0H420V353Q420 411 395 448T305 485Q251 485 207 460T127 393V0Z"/><glyph unicode="n" horiz-adv-x="561" d="M88 505H122L127 426Q162 464 210 491T319 518Q362 518 392 506T440 472T467 420T475 352V0H436V352Q436 382 430 406T409 448T372 475T314 485Q257 485 211 459T127 386V0H88V505Z"/><glyph unicode="o" horiz-adv-x="590" d="M296 -12Q243 -12 200 7T127 61T79 147T62 260Q62 318 79 365T128 447T202 499T296 517Q346 517 389 499T463 447T511 366T529 260Q529 197 512 147T465 62T391 7T296 -12ZM296 21Q339 21 375 38T436 86T476 161T490 260Q490 311 476 352T435 423T374 468T296 484Q254 484 218 468T156 423T115 353T100 260Q100 206 114 162T153 86T215 38T296 21Z"/><glyph unicode="p" horiz-adv-x="573" d="M298 21Q340 21 373 38T428 86T461 162T473 260Q473 311 461 352T426 423T370 468T297 484Q245 484 205 458T130 394V113Q164 72 207 47T298 21ZM92 505H124L129 431Q161 466 203 491T301 517Q349 517 387 499T453 448T496 367T511 260Q511 198 497 148T457 63T391 8T302 -12Q250 -12 208 12T130 75V-200H92V505Z"/><glyph unicode="q" horiz-adv-x="573" d="M443 75Q408 36 366 12T271 -12Q221 -12 182 7T117 62T76 148T62 260Q62 319 77 366T119 447T185 499T272 517Q327 517 369 492T443 431L449 505H481V-200H443V75ZM275 21Q323 21 365 46T443 113V394Q408 432 368 458T276 484Q235 484 203 469T148 424T113 353T100 260Q100 206 111 162T145 87T200 38T275 21Z"/><glyph unicode="r" horiz-adv-x="373" d="M88 505H122L127 416Q157 467 198 492T289 518Q306 518 322 516T349 511L341 473Q330 476 316 478T286 481Q189 481 127 374V0H88V505Z"/><glyph unicode="s" horiz-adv-x="443" d="M221 -12Q166 -12 120 2T44 34L63 64Q88 48 130 35T221 21Q292 21 326 49T360 123Q360 163 337 184T280 218T205 239T131 263T73 305T50 381Q50 441 95 479T218 517Q263 517 305 507T376 482L360 450Q334 464 296 474T218 484Q157 484 123 456T88 382Q88 342 111 321T168 287T243 267T317 244T375 201T398 124Q398 62 354 25T221 -12Z"/><glyph unicode="t" horiz-adv-x="357" d="M245 -12Q178 -12 150 23T122 125V473H26V505H122V671H160V505H311V473H160V125Q160 75 179 48T247 21Q267 21 285 27T320 43L336 16Q318 4 295 -4T245 -12Z"/><glyph unicode="u" horiz-adv-x="561" d="M242 -12Q199 -12 169 0T121 34T94 86T86 154V505H125V153Q125 123 131 99T151 58T189 31T246 21Q303 21 349 47T434 119V505H473V0H441L435 78Q399 41 351 15T242 -12Z"/><glyph unicode="v" horiz-adv-x="474" d="M28 505H70L236 43H238L405 505H446L258 0H216L28 505Z"/><glyph unicode="w" horiz-adv-x="786" d="M28 505H69L225 43H226L373 505H413L560 43H562L717 505H758L584 0H538L394 454H392L248 0H202L28 505Z"/><glyph unicode="x" horiz-adv-x="484" d="M219 256L45 505H90L242 284L394 505H439L266 256L449 0H404L242 229L80 0H35L219 256Z"/><glyph unicode="y" horiz-adv-x="475" d="M86 -210Q70 -210 53 -207T22 -198L34 -165Q45 -170 59 -173T85 -176Q117 -176 139 -162T178 -105L219 4L28 505H71L238 55H240L405 505H447L215 -112Q193 -169 161 -189T86 -210Z"/><glyph unicode="z" horiz-adv-x="483" d="M56 32L377 472H64V505H425V474L104 33H435V0H56V32Z"/><glyph unicode="{" horiz-adv-x="419" d="M355 -200H303Q167 -200 167 -71V148Q167 202 146 227T69 253H35V288H69Q125 288 146 313T167 393V626Q167 755 303 755H355V724H304Q252 724 229 700T205 625V396Q205 339 184 309T128 272V271Q163 263 184 233T205 146V-70Q205 -121 228 -145T304 -169H355V-200Z"/><glyph unicode="|" horiz-adv-x="254" d="M109 755H146V-200H109V755Z"/><glyph unicode="}" horiz-adv-x="419" d="M64 -169H115Q167 -169 190 -145T214 -70V146Q214 203 235 233T291 271V272Q256 279 235 309T214 396V625Q214 676 191 700T115 724H64V755H116Q252 755 252 626V393Q252 339 273 314T350 288H384V253H350Q294 253 273 228T252 148V-71Q252 -200 116 -200H64V-169Z"/><glyph unicode="¡" horiz-adv-x="233" d="M137 -70Q137 -19 136 31T133 131L127 308H104L99 131Q97 82 96 32T95 -70V-193H137V-70ZM116 510Q102 510 93 502T84 478Q84 463 93 454T116 445Q130 445 139 454T149 478Q149 493 140 501T116 510Z"/><glyph unicode="§" horiz-adv-x="620" d="M303 257Q336 252 368 246T430 229Q457 242 479 267T501 325Q501 356 486 375T446 408T388 428T319 441Q286 446 253 452T191 469Q165 455 143 430T121 373Q121 342 136 323T176 291T234 271T303 257ZM318 -14Q251 -14 198 3T99 46L119 77Q154 54 206 36T319 18Q396 18 443 45T491 120Q491 148 475 165T432 193T370 210T297 223Q258 229 220 238T152 264T104 306T85 371Q85 407 106 436T160 482Q131 496 114 519T96 577Q96 637 150 674T304 712Q371 712 424 695T523 652L503 622Q468 645 416 662T303 680Q226 680 179 653T131 579Q131 551 147 534T190 505T252 488T325 475Q364 469 402 460T470 435T518 393T537 327Q537 292 515 263T461 217Q490 202 508 180T526 122Q526 62 472 24T318 -14Z"/><glyph unicode="¨" horiz-adv-x="656" d="M243 612Q232 612 224 619T215 639Q215 651 223 659T243 667Q254 667 262 659T270 639Q270 626 262 619T243 612ZM412 612Q401 612 393 619T385 639Q385 651 393 659T412 667Q423 667 431 659T440 639Q440 626 432 619T412 612Z"/><glyph unicode="©" horiz-adv-x="875" d="M437 -12Q361 -12 295 16T180 94T102 209T73 350Q73 425 101 491T179 607T295 684T437 713Q513 713 579 685T695 607T773 492T802 350Q802 275 774 209T696 94T580 17T437 -12ZM438 17Q507 17 568 43T674 115T746 220T773 350Q773 419 747 480T675 586T568 658T438 684Q368 684 307 658T201 587T129 480T102 350Q102 281 128 221T200 115T307 44T438 17ZM445 142Q400 142 362 156T297 198T254 263T238 349Q238 393 253 430T297 495T363 537T445 553Q518 553 573 515L554 489Q508 523 446 523Q408 523 377 510T322 474T285 418T272 349Q272 308 285 276T321 220T376 185T446 173Q479 173 509 183T561 213L581 191Q557 167 522 155T445 142Z"/><glyph unicode="«" horiz-adv-x="581" d="M255 0L53 253L255 506L283 483L98 253L283 22L255 0ZM490 0L288 253L490 506L518 483L333 253L518 22L490 0Z"/><glyph unicode="®" horiz-adv-x="554" d="M277 270Q230 270 189 287T116 335T68 407T50 495Q50 542 67 583T116 655T188 703T277 721Q324 721 365 704T437 656T486 584T504 495Q504 448 486 407T438 336T366 288T277 270ZM276 297Q318 297 354 312T418 355T461 418T477 495Q477 536 461 572T418 636T355 678T276 694Q234 694 198 679T135 636T93 573T77 495Q77 454 92 418T135 355T198 313T276 297ZM295 500Q329 500 341 514T354 543Q354 560 342 574T296 588H217V500H295ZM187 615H298Q345 615 365 593T385 543Q385 523 371 503T323 475L383 374H348L292 473H217V374H187V615Z"/><glyph unicode="°" horiz-adv-x="413" d="M206 408Q174 408 147 419T98 451T65 500T53 560Q53 592 65 619T98 667T146 700T206 712Q237 712 265 700T314 668T347 620T359 560Q359 528 347 500T314 452T265 420T206 408ZM206 438Q231 438 253 447T292 473T318 512T328 560Q328 585 319 607T293 646T254 672T206 682Q181 682 159 673T121 647T94 608T84 560Q84 534 94 512T120 474T159 448T206 438Z"/><glyph unicode="²" horiz-adv-x="323" d="M42 516Q41 560 56 587T95 633T146 663T198 687T238 716T254 761Q254 790 231 810T162 830Q133 830 108 818T65 787L43 806Q64 828 96 842T163 857Q223 857 254 830T286 761Q286 728 271 708T231 673T180 648T129 622T89 585T73 528H288V500H43L42 516Z"/><glyph unicode="³" horiz-adv-x="322" d="M147 494Q116 494 89 500T43 516L55 543Q72 534 96 528T147 521Q195 521 227 543T259 603Q259 638 231 654T165 670H117V697H163Q198 697 222 714T246 766Q246 793 222 811T155 830Q130 830 107 821T64 796L45 818Q68 835 97 846T155 857Q210 857 243 832T277 767Q277 735 259 715T211 686Q244 679 267 659T291 602Q291 576 280 556T249 522T203 501T147 494Z"/><glyph unicode="´" horiz-adv-x="653" d="M381 726L411 701L271 569H242L381 726Z"/><glyph unicode="·" horiz-adv-x="204" d="M111 202Q97 202 87 211T76 237Q76 253 86 262T111 271Q125 271 135 262T146 237Q146 221 136 212T111 202Z"/><glyph unicode="º" horiz-adv-x="422" d="M210 337Q136 337 92 387T47 526Q47 567 59 600T93 656T145 692T210 705Q246 705 276 693T328 657T362 600T374 526Q374 438 330 388T210 337ZM210 365Q270 365 306 408T342 526Q342 595 306 636T210 677Q181 677 157 666T116 636T89 588T79 526Q79 452 114 409T210 365Z"/><glyph unicode="»" horiz-adv-x="581" d="M63 22L248 253L63 483L91 506L293 253L91 0L63 22ZM298 22L483 253L298 483L326 506L528 253L326 0L298 22Z"/><glyph unicode="¿" horiz-adv-x="479" d="M307 307Q307 305 307 300T308 293Q308 247 292 216T253 162T201 121T150 81T110 34T94 -33Q94 -62 106 -87T140 -131T194 -161T265 -172Q316 -172 357 -151T429 -98L455 -123Q420 -159 373 -182T264 -206Q216 -206 178 -193T112 -157T70 -103T55 -34Q55 11 71 42T111 96T164 139T217 179T258 228T276 296V307H307ZM291 509Q305 509 314 501T324 477Q324 462 315 453T291 444Q277 444 268 453T259 477Q259 492 268 500T291 509Z"/><glyph unicode="À" horiz-adv-x="670" d="M170 233H500L336 666H334L170 233ZM513 199H157L82 0H38L310 700H361L632 0H589L513 199ZM474 848L506 874L616 755H583L474 848Z"/><glyph unicode="Á" horiz-adv-x="670" d="M170 233H500L336 666H334L170 233ZM513 199H157L82 0H38L310 700H361L632 0H589L513 199ZM419 874L452 848L342 755H310L419 874Z"/><glyph unicode="Â" horiz-adv-x="670" d="M170 233H500L336 666H334L170 233ZM513 199H157L82 0H38L310 700H361L632 0H589L513 199ZM311 859H357L487 755H456L335 831H334L212 755H182L311 859Z"/><glyph unicode="Ä" horiz-adv-x="670" d="M170 233H500L336 666H334L170 233ZM513 199H157L82 0H38L310 700H361L632 0H589L513 199ZM420 780Q409 780 401 787T392 807Q392 819 400 827T420 835Q431 835 439 827T447 807Q447 795 439 788T420 780ZM250 780Q239 780 231 787T223 807Q223 819 231 827T250 835Q261 835 269 827T278 807Q278 795 270 788T250 780Z"/><glyph unicode="È" horiz-adv-x="633" d="M93 700H553V665H132V374H512V340H132V35H559V0H93V700ZM466 848L498 874L608 755H575L466 848Z"/><glyph unicode="É" horiz-adv-x="633" d="M93 700H553V665H132V374H512V340H132V35H559V0H93V700ZM411 874L444 848L334 755H302L411 874Z"/><glyph unicode="Ê" horiz-adv-x="633" d="M93 700H553V665H132V374H512V340H132V35H559V0H93V700ZM560 859H606L736 755H705L584 831H583L461 755H431L560 859Z"/><glyph unicode="Ì" horiz-adv-x="225" d="M93 700H132V0H93V700ZM-4 848L28 874L138 755H105L-4 848Z"/><glyph unicode="Í" horiz-adv-x="225" d="M93 700H132V0H93V700ZM198 874L231 848L121 755H89L198 874Z"/><glyph unicode="Î" horiz-adv-x="225" d="M93 700H132V0H93V700ZM90 859H136L266 755H235L114 831H113L-9 755H-39L90 859Z"/><glyph unicode="Ñ" horiz-adv-x="714" d="M93 700H141L582 51V700H621V0H572L131 648V0H93V700ZM225 766Q220 811 239 835T291 860Q313 860 330 849T362 823T391 797T422 785Q441 785 452 801T460 848H489Q494 803 475 779T423 754Q401 754 384 765T352 791T323 816T292 828Q273 828 262 812T253 766H225Z"/><glyph unicode="Ò" horiz-adv-x="807" d="M403 -12Q332 -12 270 13T163 86T91 202T64 356Q64 437 91 502T164 614T271 686T403 712Q473 712 535 687T643 615T716 503T743 356Q743 270 717 202T644 87T536 14T403 -12ZM403 23Q466 23 520 46T615 111T679 216T703 356Q703 429 679 488T615 589T519 654T403 677Q342 677 288 654T193 589T128 488T104 356Q104 278 127 216T191 112T286 46T403 23ZM286 848L318 874L428 755H395L286 848Z"/><glyph unicode="Ó" horiz-adv-x="807" d="M403 -12Q332 -12 270 13T163 86T91 202T64 356Q64 437 91 502T164 614T271 686T403 712Q473 712 535 687T643 615T716 503T743 356Q743 270 717 202T644 87T536 14T403 -12ZM403 23Q466 23 520 46T615 111T679 216T703 356Q703 429 679 488T615 589T519 654T403 677Q342 677 288 654T193 589T128 488T104 356Q104 278 127 216T191 112T286 46T403 23ZM488 874L521 848L411 755H379L488 874Z"/><glyph unicode="Ô" horiz-adv-x="807" d="M403 -12Q332 -12 270 13T163 86T91 202T64 356Q64 437 91 502T164 614T271 686T403 712Q473 712 535 687T643 615T716 503T743 356Q743 270 717 202T644 87T536 14T403 -12ZM403 23Q466 23 520 46T615 111T679 216T703 356Q703 429 679 488T615 589T519 654T403 677Q342 677 288 654T193 589T128 488T104 356Q104 278 127 216T191 112T286 46T403 23ZM380 859H426L556 755H525L404 831H403L281 755H251L380 859Z"/><glyph unicode="Ö" horiz-adv-x="807" d="M403 -12Q332 -12 270 13T163 86T91 202T64 356Q64 437 91 502T164 614T271 686T403 712Q473 712 535 687T643 615T716 503T743 356Q743 270 717 202T644 87T536 14T403 -12ZM403 23Q466 23 520 46T615 111T679 216T703 356Q703 429 679 488T615 589T519 654T403 677Q342 677 288 654T193 589T128 488T104 356Q104 278 127 216T191 112T286 46T403 23ZM489 780Q478 780 470 787T461 807Q461 819 469 827T489 835Q500 835 508 827T516 807Q516 795 508 788T489 780ZM319 780Q308 780 300 787T292 807Q292 819 300 827T319 835Q330 835 338 827T347 807Q347 795 339 788T319 780Z"/><glyph unicode="Ø" horiz-adv-x="807" d="M104 356Q104 273 129 210T200 102L582 618Q544 647 499 662T403 677Q342 677 288 654T193 589T128 488T104 356ZM403 23Q466 23 520 46T615 111T679 216T703 356Q703 433 678 494T607 597L224 82Q262 53 307 38T403 23ZM403 -12Q346 -12 295 4T201 52L136 -36L111 -18L177 72Q124 120 94 191T64 356Q64 437 91 502T164 614T271 686T403 712Q460 712 511 696T605 647L671 736L696 718L630 628Q682 581 712 513T743 356Q743 270 717 202T644 87T536 14T403 -12Z"/><glyph unicode="Ù" horiz-adv-x="710" d="M355 -12Q300 -12 252 5T167 55T111 138T90 254V700H129V254Q129 197 147 154T195 82T267 38T355 23Q401 23 442 38T514 82T563 154T581 254V700H620V254Q620 188 600 138T543 55T459 5T355 -12ZM494 848L526 874L636 755H603L494 848Z"/><glyph unicode="Ú" horiz-adv-x="710" d="M355 -12Q300 -12 252 5T167 55T111 138T90 254V700H129V254Q129 197 147 154T195 82T267 38T355 23Q401 23 442 38T514 82T563 154T581 254V700H620V254Q620 188 600 138T543 55T459 5T355 -12ZM440 874L473 848L363 755H331L440 874Z"/><glyph unicode="Û" horiz-adv-x="710" d="M355 -12Q300 -12 252 5T167 55T111 138T90 254V700H129V254Q129 197 147 154T195 82T267 38T355 23Q401 23 442 38T514 82T563 154T581 254V700H620V254Q620 188 600 138T543 55T459 5T355 -12ZM332 859H378L508 755H477L356 831H355L233 755H203L332 859Z"/><glyph unicode="Ü" horiz-adv-x="710" d="M355 -12Q300 -12 252 5T167 55T111 138T90 254V700H129V254Q129 197 147 154T195 82T267 38T355 23Q401 23 442 38T514 82T563 154T581 254V700H620V254Q620 188 600 138T543 55T459 5T355 -12ZM440 780Q429 780 421 787T412 807Q412 819 420 827T440 835Q451 835 459 827T467 807Q467 795 459 788T440 780ZM270 780Q259 780 251 787T243 807Q243 819 251 827T270 835Q281 835 289 827T298 807Q298 795 290 788T270 780Z"/><glyph unicode="ß" horiz-adv-x="592" d="M320 -11Q292 -11 268 -7T227 2L235 35Q249 30 270 27T318 23Q356 23 388 35T445 69T482 124T496 196Q496 233 483 265T444 321T380 359T292 373H254V406H287Q331 406 362 420T413 457T442 508T451 566Q451 606 439 636T405 686T354 717T289 728Q254 728 225 717T175 684T142 630T130 556V0H92V556Q92 605 107 643T148 707T210 747T289 761Q331 761 367 748T431 710T473 649T489 567Q489 505 457 459T362 393Q443 378 489 325T535 195Q535 147 519 109T473 44T405 3T320 -11Z"/><glyph unicode="à" horiz-adv-x="504" d="M201 20Q258 20 303 45T371 104V247Q326 245 277 239T187 217T119 176T92 110Q92 68 121 44T201 20ZM196 -12Q132 -12 93 20T54 109Q54 159 83 190T157 240T259 267T371 277V375Q371 421 343 452T249 484Q206 484 164 471T89 440L72 472Q106 490 153 503T249 517Q291 517 321 506T371 476T400 431T409 375V91Q409 61 424 46T466 30V0Q386 0 374 70Q347 36 301 12T196 -12ZM371 701L401 726L540 569H511L371 701Z"/><glyph unicode="á" horiz-adv-x="504" d="M201 20Q258 20 303 45T371 104V247Q326 245 277 239T187 217T119 176T92 110Q92 68 121 44T201 20ZM196 -12Q132 -12 93 20T54 109Q54 159 83 190T157 240T259 267T371 277V375Q371 421 343 452T249 484Q206 484 164 471T89 440L72 472Q106 490 153 503T249 517Q291 517 321 506T371 476T400 431T409 375V91Q409 61 424 46T466 30V0Q386 0 374 70Q347 36 301 12T196 -12ZM627 726L657 701L517 569H488L627 726Z"/><glyph unicode="â" horiz-adv-x="504" d="M201 20Q258 20 303 45T371 104V247Q326 245 277 239T187 217T119 176T92 110Q92 68 121 44T201 20ZM196 -12Q132 -12 93 20T54 109Q54 159 83 190T157 240T259 267T371 277V375Q371 421 343 452T249 484Q206 484 164 471T89 440L72 472Q106 490 153 503T249 517Q291 517 321 506T371 476T400 431T409 375V91Q409 61 424 46T466 30V0Q386 0 374 70Q347 36 301 12T196 -12ZM492 717H538L665 569H635L515 688H514L395 569H365L492 717Z"/><glyph unicode="ä" horiz-adv-x="504" d="M201 20Q258 20 303 45T371 104V247Q326 245 277 239T187 217T119 176T92 110Q92 68 121 44T201 20ZM196 -12Q132 -12 93 20T54 109Q54 159 83 190T157 240T259 267T371 277V375Q371 421 343 452T249 484Q206 484 164 471T89 440L72 472Q106 490 153 503T249 517Q291 517 321 506T371 476T400 431T409 375V91Q409 61 424 46T466 30V0Q386 0 374 70Q347 36 301 12T196 -12ZM421 612Q410 612 402 619T393 639Q393 651 401 659T421 667Q432 667 440 659T448 639Q448 626 440 619T421 612ZM590 612Q579 612 571 619T563 639Q563 651 571 659T590 667Q601 667 609 659T618 639Q618 626 610 619T590 612Z"/><glyph unicode="è" horiz-adv-x="555" d="M471 43Q439 20 392 4T295 -12Q179 -12 121 60T62 259Q62 318 79 366T128 447T201 499T294 518Q345 518 382 502T443 456T478 386T490 300Q490 292 490 283T488 267H100V259Q100 149 148 85T296 21Q340 21 381 36T451 72L471 43ZM295 485Q257 485 224 472T166 435T124 376T102 298H452Q453 336 445 370T418 429T369 470T295 485ZM404 701L434 726L573 569H544L404 701Z"/><glyph unicode="é" horiz-adv-x="555" d="M471 43Q439 20 392 4T295 -12Q179 -12 121 60T62 259Q62 318 79 366T128 447T201 499T294 518Q345 518 382 502T443 456T478 386T490 300Q490 292 490 283T488 267H100V259Q100 149 148 85T296 21Q340 21 381 36T451 72L471 43ZM295 485Q257 485 224 472T166 435T124 376T102 298H452Q453 336 445 370T418 429T369 470T295 485ZM404 726L434 701L294 569H265L404 726Z"/><glyph unicode="ê" horiz-adv-x="555" d="M471 43Q439 20 392 4T295 -12Q179 -12 121 60T62 259Q62 318 79 366T128 447T201 499T294 518Q345 518 382 502T443 456T478 386T490 300Q490 292 490 283T488 267H100V259Q100 149 148 85T296 21Q340 21 381 36T451 72L471 43ZM295 485Q257 485 224 472T166 435T124 376T102 298H452Q453 336 445 370T418 429T369 470T295 485ZM526 717H572L699 569H669L549 688H548L429 569H399L526 717Z"/><glyph unicode="ì" horiz-adv-x="223" d="M92 505H131V0H92V505ZM-31 701L-1 726L138 569H109L-31 701Z"/><glyph unicode="í" horiz-adv-x="223" d="M92 505H131V0H92V505ZM225 726L255 701L115 569H86L225 726Z"/><glyph unicode="î" horiz-adv-x="223" d="M92 505H131V0H92V505ZM90 717H136L263 569H233L113 688H112L-7 569H-37L90 717Z"/><glyph unicode="ñ" horiz-adv-x="561" d="M88 505H122L127 426Q162 464 210 491T319 518Q362 518 392 506T440 472T467 420T475 352V0H436V352Q436 382 430 406T409 448T372 475T314 485Q257 485 211 459T127 386V0H88V505ZM605 586Q584 586 567 597T535 622T505 647T474 659Q455 659 444 643T436 598H407Q402 643 422 667T474 692Q495 692 512 681T544 655T573 630T604 618Q623 618 634 634T642 680H671Q676 635 657 611T605 586Z"/><glyph unicode="ò" horiz-adv-x="590" d="M296 -12Q243 -12 200 7T127 61T79 147T62 260Q62 318 79 365T128 447T202 499T296 517Q346 517 389 499T463 447T511 366T529 260Q529 197 512 147T465 62T391 7T296 -12ZM296 21Q339 21 375 38T436 86T476 161T490 260Q490 311 476 352T435 423T374 468T296 484Q254 484 218 468T156 423T115 353T100 260Q100 206 114 162T153 86T215 38T296 21ZM408 701L438 726L577 569H548L408 701Z"/><glyph unicode="ó" horiz-adv-x="590" d="M296 -12Q243 -12 200 7T127 61T79 147T62 260Q62 318 79 365T128 447T202 499T296 517Q346 517 389 499T463 447T511 366T529 260Q529 197 512 147T465 62T391 7T296 -12ZM296 21Q339 21 375 38T436 86T476 161T490 260Q490 311 476 352T435 423T374 468T296 484Q254 484 218 468T156 423T115 353T100 260Q100 206 114 162T153 86T215 38T296 21ZM408 726L438 701L298 569H269L408 726Z"/><glyph unicode="ô" horiz-adv-x="590" d="M296 -12Q243 -12 200 7T127 61T79 147T62 260Q62 318 79 365T128 447T202 499T296 517Q346 517 389 499T463 447T511 366T529 260Q529 197 512 147T465 62T391 7T296 -12ZM296 21Q339 21 375 38T436 86T476 161T490 260Q490 311 476 352T435 423T374 468T296 484Q254 484 218 468T156 423T115 353T100 260Q100 206 114 162T153 86T215 38T296 21ZM529 717H575L702 569H672L552 688H551L432 569H402L529 717Z"/><glyph unicode="ö" horiz-adv-x="590" d="M296 -12Q243 -12 200 7T127 61T79 147T62 260Q62 318 79 365T128 447T202 499T296 517Q346 517 389 499T463 447T511 366T529 260Q529 197 512 147T465 62T391 7T296 -12ZM296 21Q339 21 375 38T436 86T476 161T490 260Q490 311 476 352T435 423T374 468T296 484Q254 484 218 468T156 423T115 353T100 260Q100 206 114 162T153 86T215 38T296 21ZM468 612Q457 612 449 619T440 639Q440 651 448 659T468 667Q479 667 487 659T495 639Q495 626 487 619T468 612ZM637 612Q626 612 618 619T610 639Q610 651 618 659T637 667Q648 667 656 659T665 639Q665 626 657 619T637 612Z"/><glyph unicode="ø" horiz-adv-x="590" d="M100 260Q100 206 113 163T152 88L416 442Q365 484 296 484Q254 484 218 468T156 423T115 353T100 260ZM296 21Q339 21 375 38T436 86T476 161T490 260Q490 311 476 352T436 422L173 66Q223 21 296 21ZM296 -12Q210 -12 152 37L84 -54L59 -35L129 59Q97 94 80 145T62 260Q62 318 79 365T128 447T202 499T296 517Q378 517 436 471L502 560L527 541L459 451Q492 417 510 369T529 260Q529 197 512 147T465 62T391 7T296 -12Z"/><glyph unicode="ù" horiz-adv-x="561" d="M242 -12Q199 -12 169 0T121 34T94 86T86 154V505H125V153Q125 123 131 99T151 58T189 31T246 21Q303 21 349 47T434 119V505H473V0H441L435 78Q399 41 351 15T242 -12ZM392 701L422 726L561 569H532L392 701Z"/><glyph unicode="ú" horiz-adv-x="561" d="M242 -12Q199 -12 169 0T121 34T94 86T86 154V505H125V153Q125 123 131 99T151 58T189 31T246 21Q303 21 349 47T434 119V505H473V0H441L435 78Q399 41 351 15T242 -12ZM393 726L423 701L283 569H254L393 726Z"/><glyph unicode="û" horiz-adv-x="561" d="M242 -12Q199 -12 169 0T121 34T94 86T86 154V505H125V153Q125 123 131 99T151 58T189 31T246 21Q303 21 349 47T434 119V505H473V0H441L435 78Q399 41 351 15T242 -12ZM514 717H560L687 569H657L537 688H536L417 569H387L514 717Z"/><glyph unicode="ü" horiz-adv-x="561" d="M242 -12Q199 -12 169 0T121 34T94 86T86 154V505H125V153Q125 123 131 99T151 58T189 31T246 21Q303 21 349 47T434 119V505H473V0H441L435 78Q399 41 351 15T242 -12ZM452 612Q441 612 433 619T424 639Q424 651 432 659T452 667Q463 667 471 659T479 639Q479 626 471 619T452 612ZM621 612Q610 612 602 619T594 639Q594 651 602 659T621 667Q632 667 640 659T649 639Q649 626 641 619T621 612Z"/><glyph unicode="ı" horiz-adv-x="223" d="M92 505H131V0H92V505Z"/><glyph unicode="ˆ" horiz-adv-x="657" d="M306 717H352L479 569H449L329 688H328L209 569H179L306 717Z"/><glyph unicode="˜" horiz-adv-x="656" d="M394 586Q373 586 356 597T324 622T294 647T263 659Q244 659 233 643T225 598H196Q191 643 211 667T263 692Q284 692 301 681T333 655T362 630T393 618Q412 618 423 634T431 680H460Q465 635 446 611T394 586Z"/><glyph unicode="ẞ" horiz-adv-x="672" d="M364 -11Q330 -11 301 -7T253 2L262 36Q278 31 304 27T363 23Q407 23 444 33T509 64T552 113T568 181Q568 252 511 296T342 341H288V375H335Q389 375 426 388T487 424T521 473T532 527Q532 564 517 592T475 640T411 670T329 681Q285 681 249 669T186 632T144 573T129 491V0H90V491Q90 544 108 585T157 655T233 699T329 714Q381 714 425 701T502 664T552 606T571 527Q571 499 561 472T531 423T481 384T408 360Q457 356 494 341T557 301T594 246T607 180Q607 134 589 99T539 39T462 2T364 -11Z"/><glyph unicode="–" horiz-adv-x="562" d="M49 276H513V239H49V276Z"/><glyph unicode="—" horiz-adv-x="918" d="M49 276H868V239H49V276Z"/><glyph unicode="‘" horiz-adv-x="197" d="M152 701Q136 675 127 646T113 589T108 536T114 490H65Q60 542 76 603T131 714L152 701Z"/><glyph unicode="’" horiz-adv-x="197" d="M45 495Q61 521 70 550T84 607T88 660T83 706H132Q137 654 121 593T66 482L45 495Z"/><glyph unicode="‚" horiz-adv-x="197" d="M36 -146Q52 -120 61 -91T75 -34T79 19T74 65H123Q128 13 112 -48T57 -159L36 -146Z"/><glyph unicode="“" horiz-adv-x="364" d="M152 701Q136 675 127 646T113 589T108 536T114 490H65Q60 542 76 603T131 714L152 701ZM319 701Q303 675 294 646T280 589T275 536T281 490H232Q227 542 243 603T298 714L319 701Z"/><glyph unicode="”" horiz-adv-x="364" d="M45 495Q61 521 70 550T84 607T88 660T83 706H132Q137 654 121 593T66 482L45 495ZM212 495Q228 521 237 550T251 607T255 660T250 706H299Q304 654 288 593T233 482L212 495Z"/><glyph unicode="„" horiz-adv-x="363" d="M36 -146Q52 -120 61 -91T75 -34T79 19T74 65H123Q128 13 112 -48T57 -159L36 -146ZM202 -146Q218 -120 227 -91T241 -34T245 19T240 65H289Q294 13 278 -48T223 -159L202 -146Z"/><glyph unicode="•" horiz-adv-x="542" d="M271 131Q245 131 223 140T184 166T158 205T148 253Q148 279 157 301T184 340T223 366T271 376Q297 376 319 367T358 341T384 302T394 253Q394 227 385 205T359 167T320 141T271 131Z"/><glyph unicode="…" horiz-adv-x="660" d="M551 -4Q537 -4 527 5T516 31Q516 47 526 56T551 65Q565 65 575 56T586 31Q586 15 576 6T551 -4ZM332 -4Q318 -4 308 5T297 31Q297 47 307 56T332 65Q346 65 356 56T367 31Q367 15 357 6T332 -4ZM113 -4Q99 -4 89 5T78 31Q78 47 88 56T113 65Q127 65 137 56T148 31Q148 15 138 6T113 -4Z"/><glyph unicode="‹" horiz-adv-x="346" d="M255 0L53 253L255 506L283 483L98 253L283 22L255 0Z"/><glyph unicode="›" horiz-adv-x="346" d="M63 22L248 253L63 483L91 506L293 253L91 0L63 22Z"/><glyph unicode="⁄" horiz-adv-x="617" d="M578 700H618L39 0H-1L578 700Z"/><glyph unicode="€" horiz-adv-x="620" d="M564 76Q531 38 488 13T386 -12Q338 -12 298 5T227 53T173 129T139 230H43V260H133Q127 302 127 350Q127 396 133 438H43V468H138Q161 581 225 646T386 712Q445 712 488 688T564 624L537 602Q511 635 473 656T387 678Q306 678 252 623T177 468H443V438H172Q166 397 166 350Q166 302 172 260H402V230H178Q199 133 253 78T387 23Q435 23 473 44T537 99L564 76Z"/><glyph unicode="™" horiz-adv-x="873" d="M189 669H37V700H381V669H223V330H189V669ZM449 700H490L628 515L765 700H807V330H773V656L628 462L483 656V330H449V700Z"/><glyph unicode="−" horiz-adv-x="612" d="M53 271H559V235H53V271Z"/><glyph unicode="ﬀ" horiz-adv-x="631" d="M406 566Q406 605 413 635T433 687Q401 706 370 714T309 722Q275 722 248 714T202 688T172 638T161 562V504H406V566ZM123 0V472H26V504H123V562Q123 616 136 653T174 712T232 745T307 755Q348 755 383 744T452 712Q476 738 511 749T590 760Q603 760 619 758T645 753L636 721Q630 723 616 725T591 727Q558 727 531 719T485 693T456 643T445 567V504H593V472H445V0H406V472H161V0H123Z"/><glyph unicode="ﬁ" horiz-adv-x="559" d="M123 472H26V504H123V566Q123 620 136 657T174 717T233 750T309 760Q399 760 477 705L458 678Q422 704 384 715T310 727Q276 727 249 719T202 692T172 643T161 566V504H310V472H161V0H123V472ZM428 505H467V0H428V505Z"/><glyph unicode="ﬂ" horiz-adv-x="578" d="M123 472H26V504H123V571Q123 621 136 656T174 715T231 749T304 760Q344 760 377 749T435 715T472 656T486 570V0H447V570Q447 653 408 690T304 727Q240 727 201 690T161 570V504H310V472H161V0H123V472Z"/><glyph unicode="ﬃ" horiz-adv-x="843" d="M406 566Q406 605 413 634T433 687Q402 706 370 714T309 722Q275 722 248 714T202 688T172 638T161 562V504H406V566ZM712 505H750V0H712V505ZM123 0V472H26V504H123V562Q123 616 136 653T174 712T232 745T307 755Q348 755 383 744T452 712Q477 738 512 749T593 760Q683 760 761 705L742 678Q706 704 668 715T594 727Q560 727 533 719T486 692T456 643T445 566V504H593V472H445V0H406V472H161V0H123Z"/><glyph unicode="ﬄ" horiz-adv-x="861" d="M406 571Q406 641 434 686Q402 706 370 714T309 722Q275 722 248 714T202 688T172 638T161 562V504H406V571ZM123 0V472H26V504H123V562Q123 616 136 653T174 712T232 745T307 755Q349 755 384 744T453 711Q477 737 511 748T588 760Q628 760 661 749T718 715T755 656T769 570V0H731V570Q731 653 692 690T588 727Q523 727 484 690T445 570V504H593V472H445V0H406V472H161V0H123Z"/></font>
</defs>
</svg>
